#TITLE:Seven Secrets Of The Sphinx;
#SUBTITLE:By Hellowen66601@hotmail.com;
#ARTIST:Therion;
#TITLETRANSLIT:;
#SUBTITLETRANSLIT:;
#ARTISTTRANSLIT:;
#CREDIT:;
#BANNER:Banner.bmp;
#BACKGROUND:Background.bmp;
#LYRICSPATH:By Hellowen66601@hotmail.com.lrc;
#CDTITLE:Hellowen66601@hotmail.com.bmp;
#MUSIC:Seven Secrets Of The Sphinx.mp3;
#OFFSET:0.000;
#SAMPLESTART:100.000;
#SAMPLELENGTH:12.000;
#SELECTABLE:YES;
#BPMS:0.000=200.000,71.125=250.000,111.375=280.000,156.250=349.999,268.625=100.000,284.750=369.998,403.250=99.999,419.375=199.999,483.875=250.000,523.875=284.999,569.750=379.998,691.500=199.999,723.625=399.997,852.125=249.999,892.250=349.998,906.875=399.997,922.625=449.996,940.625=499.996,960.625=549.996,982.500=599.995,1007.125=650.015,1032.875=299.999,1034.000=200.000,1035.000=100.000,1036.000=49.999,1036.500=29.999;
#STOPS:;
#BGCHANGES:;
// cache tags:
#FIRSTBEAT:1.875;
#LASTBEAT:1036.750;
#SONGFILENAME:Songs/Music V.I.P ^_^/Therion - Seven Secrets Of The Sphinx/Seven Secrets Of The Sphinx.sm;
#HASMUSIC:1;
#HASBANNER:1;
#MUSICLENGTH:216.006;
// end cache tags

//---------------dance-single - Desparche----------------
#NOTES:
     dance-single:
     Desparche:
     Hard:
     10:
     1.000,1.000,1.000,1.000,1.000,1038.000,245.000,1084.000,0.000,32.000:
0000
0000
0000
0000
0000
0000
0000
0000
0000
0000
0000
0000
0000
0000
0000
0001
0000
0000
0000
0010
0000
0000
0000
0100
0000
0000
0000
1000
0000
0000
0000
0100
,
0000
0000
0000
0010
0000
0000
0000
0202
0303
0000
0000
0000
0000
0000
0000
0220
0330
0000
0000
2020
3030
0000
0000
2201
0000
3300
0000
0000
0000
0000
0220
0000
,
0000
0330
0000
0000
0000
0000
0000
2002
0000
0000
0000
3003
0000
0000
0000
0000
0000
0000
0000
0000
0000
0000
0000
0000
2002
0000
0000
3003
0000
0000
0000
0000
,
2020
0000
0000
3030
0000
0000
0000
0202
0000
0000
0303
0000
0000
0000
0000
2200
0000
3300
0000
0000
0000
0000
0000
2002
3003
0000
0000
0000
0000
0000
0000
0220
,
0000
0000
0330
0000
0000
0000
0000
2002
0000
0000
0000
0000
0000
0000
0000
0000
0000
3003
0000
0000
0000
0000
0000
0000
2020
3030
0000
0000
0000
0000
0000
0000
,
2200
3300
0000
0000
0000
0000
0000
0000
0011
0000
0000
0000
0000
0000
0000
1100
0000
0000
0000
0000
0000
0000
0000
1001
0000
0000
0000
0000
0000
0000
0000
0000
,
1100
0000
0000
0000
0000
0000
0000
0000
2002
0000
0000
0000
0000
0000
0000
0000
0000
3000
0000
0000
0000
0000
0000
0000
0003
1100
0000
0000
0000
0000
0000
0000
,
1010
0110
1010
0110
,
0000
1010
0000
0000
0000
0000
0000
0000
2002
0000
0000
0000
0000
0000
0000
3000
0000
0000
0000
0000
0000
0003
0000
1010
0000
0000
0000
0000
0000
0000
0000
1001
,
0000
0000
0000
0000
0000
0000
0000
0011
0000
0000
0000
0000
0000
0000
0000
1010
0000
0000
0000
0000
0000
0000
0000
1102
0000
0000
0000
0000
0000
0000
0000
0000
,
1010
0000
0000
0000
0000
0000
0000
0003
1100
0000
0000
0000
0000
0000
0000
0000
0000
0000
0000
0000
0000
0000
0000
0000
1010
0000
0000
0000
0000
0000
0000
0000
,
0011
1100
0101
1002
,
0000
1100
0000
0000
0000
0000
0000
0000
0000
0113
0000
0000
0000
0000
0000
0000
0000
0000
0000
0000
0000
0000
0000
0000
0000
1100
0000
0000
0000
0000
0000
0000
,
0000
0011
0000
0000
0000
0000
0000
0000
0000
0000
1100
0000
0000
0000
0000
0000
0110
0000
0000
0000
0000
0000
0000
0000
0000
0011
0000
0000
0000
0000
0000
0000
,
0000
1100
0000
0000
0000
0000
0000
0000
2002
0000
0000
0000
0000
0000
0000
3000
0000
0000
0000
0000
0000
0000
0000
0000
1013
0000
0000
0000
0000
0000
0000
0000
,
1100
0000
0000
0000
0000
0000
0000
0000
0011
0000
0000
0000
0000
0000
0000
0000
0000
1010
0000
0000
0000
0000
0000
0000
0000
1100
0000
0000
0000
0000
0000
0000
,
0000
1010
0000
0000
0000
0000
0000
0000
0000
2002
0000
0000
0000
0000
0000
0000
3000
0000
0000
0000
0000
0000
0000
0000
1103
0000
0000
0000
0000
0000
0000
0000
,
1010
0000
0000
0000
0000
0000
0000
0000
0000
0110
0000
0000
0000
0000
0000
0000
0000
0011
0000
0000
0000
0000
0000
0000
0000
0200
0000
0000
0000
0000
0000
0000
,
0000
0000
0000
0300
0020
0000
0000
0000
0000
0000
0000
0000
0000
0000
0030
2000
0000
0000
0000
0000
0000
0000
0000
0000
0000
3000
0002
0000
0000
0000
0000
0000
,
0000
0000
0000
0003
0020
0000
0000
0000
0000
0000
0000
0000
0000
0000
0030
2000
3000
0200
0300
0020
0030
0200
0300
2000
0000
0000
0000
0000
0000
0000
0000
3000
,
0020
0000
0000
0000
0000
0000
0000
0000
0000
0030
0200
0000
0000
0000
0000
0000
0000
0000
0000
0000
0300
0002
0000
0000
0000
0000
0000
0000
0000
0000
0003
2000
,
0000
0000
0000
0000
0000
0000
0000
0000
3000
0020
0000
0000
0000
0000
0000
0000
0000
0000
0030
0200
0000
0000
0000
0000
0000
0000
0000
0000
0000
0300
0002
0003
,
0020
0030
0200
0300
0020
0030
2000
0000
0000
0000
0000
0000
0000
0000
0000
3000
0200
0000
0000
0000
0000
0000
0000
0000
0000
0300
0020
0000
0000
0000
0000
0000
,
0000
0000
0000
0030
0002
0000
0000
0000
0000
0000
0000
0000
0000
0000
0003
0200
0000
0000
0000
0000
0000
0000
0000
0000
0300
2000
0000
0000
0000
0000
0000
0000
,
0000
0000
3000
0002
0000
0000
0000
0000
0000
0000
0000
0000
0000
0003
0020
0030
0200
0300
2000
3000
0200
0300
0002
0000
0000
0000
0000
0000
0000
0000
0000
0003
,
0020
0000
0000
0000
0000
0000
0000
0000
0000
0000
0030
0200
0000
0000
0000
0000
0000
0000
0000
0000
0300
0020
0000
0000
0000
0000
0000
0000
0000
0000
0030
2000
,
0000
0000
0000
0000
0000
0000
0000
0000
3000
0020
0000
0000
0000
0000
0000
0000
0000
0000
0000
0030
0002
0000
0000
0000
0000
0000
0000
0000
0000
0003
0000
0200
,
0300
2000
3000
0020
0030
0200
0300
0002
0000
0000
0000
0000
0000
0000
0000
0000
0003
0020
0000
0000
0000
0000
0000
0000
0030
0000
0000
0220
0000
0000
0000
0000
,
0300
0000
0000
0000
0000
2000
0000
0000
0000
0000
3000
0000
0000
0000
0000
0000
0000
0202
0000
0000
0000
0000
0000
0000
0000
0000
0000
0000
0000
0000
0000
0000
,
0000
0303
0000
0000
0000
0000
0000
0000
0000
0200
0000
0000
0000
0000
0000
0300
0000
0000
0000
0002
0000
0000
0000
0000
0000
0000
0003
0000
0000
0000
0200
0000
,
0000
0000
0000
0000
0000
0300
0000
0000
0000
0000
2030
0000
0000
0000
0000
0000
3000
0000
0000
0000
0000
0220
0000
0000
0000
0000
0000
0030
0000
0000
0000
0000
,
0000
0002
0000
0000
0000
0000
0000
0000
0003
0000
0000
0000
0000
2020
0000
0000
0000
0000
0000
0000
0000
0000
0000
0000
0000
0000
0000
0000
3030
0000
0000
0000
,
0000
0000
0002
0000
0000
0000
0000
0000
0000
0003
0000
0000
0000
0020
0000
0000
0000
0000
0000
0000
0000
0030
0000
0000
0000
2000
0000
0000
0000
0000
0000
0000
,
3000
0000
0000
0000
0302
0000
0000
0000
0000
0000
0003
0000
0000
0000
0000
0022
0000
0000
0000
0000
0000
0000
0000
0003
0000
0000
0000
2000
0000
0000
0000
0000
,
0000
0000
3000
0000
0000
0000
0000
2200
0000
0000
0000
0000
0000
0000
0000
0000
0000
0000
0000
0000
0000
0000
0000
3300
0000
0000
0000
0000
0000
0002
0000
0000
,
0000
0000
0000
0000
0003
0000
0000
0000
2000
0000
0000
0000
0000
0000
0000
0000
3000
0000
0000
0200
0000
0000
0000
0000
0000
0000
0000
0300
0000
0000
0002
0030
,
0000
0000
0000
0000
0000
0003
0000
0000
0000
2200
0000
0000
0000
0000
0000
0000
0000
3000
0000
0000
0000
0000
0020
0000
0000
0000
0000
0000
0000
0030
0000
0000
,
0000
2002
0000
0000
0000
0000
0000
0000
0000
0000
0000
0000
0000
0000
0000
0000
0000
0000
0000
3303
0000
0000
2200
0000
0000
0000
0000
3300
0000
0000
0000
0000
,
0010
0100
1000
0100
0010
0001
0010
0100
2000
0000
0000
0000
0000
3000
0000
0000
,
0000
0000
2200
0000
3300
0000
0000
0000
0000
0000
0000
0200
0000
0300
0000
0000
0000
0000
0020
0000
0030
0000
0000
0000
2000
0000
3000
0000
0000
0000
0000
0020
,
0000
0030
0000
0000
0200
0000
0300
0000
0000
0000
0000
0000
0000
0002
0000
0003
0000
0000
0000
0200
0000
0300
0000
0000
0000
2002
0000
3003
0000
0000
0000
0000
,
0000
0200
0000
0300
0000
0000
0000
0000
0020
0000
0030
0000
0000
0000
0000
0000
0002
0000
0003
0000
0000
0000
0000
0020
0000
0030
0000
0000
0000
0000
0200
0000
,
0300
0000
0000
0000
0000
2000
0000
3000
0000
0000
0000
0000
0200
0000
0300
0000
0000
0000
0000
0022
0000
0033
0000
0000
0000
0000
0200
0000
0300
0000
0000
0000
,
0000
0020
0000
0030
0000
0000
0000
0000
2000
0000
3000
0000
0000
0000
0000
0002
0000
0003
0000
0000
0000
0000
0200
0000
0300
0000
0000
0000
0000
0000
0020
0000
,
0030
0000
0000
0000
0000
2000
0000
3000
0000
0000
0000
0202
0000
0303
0000
0000
0000
0000
0020
0000
0030
0000
0000
0000
0000
0002
0000
0003
0000
0000
0000
0000
,
0200
0000
0300
0000
0000
0000
0000
0020
0000
0030
0000
0000
0000
0000
2000
0000
3000
0000
0000
0000
0000
0200
0000
0300
0000
0000
0000
0000
0000
0020
0000
0030
,
0000
0000
0000
0000
2200
0000
3300
0000
0000
0000
0000
0020
0000
0030
0000
0000
0000
0000
0002
0000
0003
0000
0000
0000
0000
0200
0000
0300
0000
0000
0000
0000
,
0020
0000
0030
0000
0000
0000
0000
0200
0000
0300
0000
0000
0000
0000
2000
0000
3000
0000
0000
0000
0000
0200
0000
0300
0000
0000
0000
0022
0000
0033
0000
0000
,
0000
0000
2000
0000
3000
0000
0000
0000
0000
0200
0000
0300
0000
0000
0000
0000
0020
0000
0030
0000
0000
0000
0000
0002
0000
0003
0000
0000
0000
0000
0200
0000
,
0300
0000
0000
0000
0000
0000
0020
0000
0030
0000
0000
0000
0000
0200
0000
0300
0000
0000
0000
2002
0000
3003
0000
0000
0000
0000
0020
0000
0030
0000
0000
0000
,
0000
0002
0000
0003
0000
0000
0000
0000
0200
0000
0300
0000
0000
0000
0000
2000
0000
3000
0000
0000
0000
0000
0200
0000
0300
0000
0000
0000
0000
0020
0000
0030
,
0000
0000
0000
0000
0000
0002
0000
0003
0000
0000
0000
0220
0000
0330
0000
0000
0000
0000
0000
2000
0000
3000
0000
0000
0000
0020
0000
0030
0000
0000
0000
0000
,
0002
0000
0003
0000
0000
0000
0000
0000
2000
0000
3000
0000
0000
0000
0020
0000
0030
0000
0000
0000
0000
0002
0000
0003
0000
0000
0000
0200
0000
0300
0000
0000
,
0000
0000
2020
0000
3030
0000
0000
0000
0000
0200
0000
0300
0000
0000
0000
0000
0020
0000
0030
0000
0000
0000
0000
2000
0000
3000
0000
0000
0000
0000
0002
0000
,
0003
0000
0000
0000
0000
2000
0000
3000
0000
0000
0000
0000
0000
0000
0020
0000
0030
0000
0000
0000
2000
0000
3000
0000
0000
0000
0000
0000
0202
0000
0303
0000
,
0000
0000
0000
0000
0020
0000
0030
0000
0000
0000
0000
0002
0000
0003
0000
0000
0000
0000
0200
0000
0300
0000
0000
0000
0000
0020
0000
0030
0000
0000
0000
0000
,
0000
2000
0000
3000
0000
0000
0000
0000
0002
0000
0003
0000
0000
0000
0000
0200
0000
0300
0000
0000
0000
0022
0000
0033
0000
0000
0000
0000
0000
0200
0000
0300
,
0000
0000
0000
0002
0000
0003
0000
0000
0000
0000
2000
0000
3000
0000
0000
0000
0000
0020
0000
0030
0000
0000
0000
0000
0000
0200
0000
0300
0000
0000
0000
0000
,
2000
0000
3000
0000
0000
0000
0000
0020
0000
0030
0000
0000
0000
0202
0000
0303
0000
0000
0000
0000
0020
0000
0030
0000
0000
0000
0000
0002
0000
0003
0000
0000
,
0000
0000
0000
0020
0000
0030
0000
0000
0000
0000
0200
0000
0300
0000
0000
0000
0000
2000
0000
3000
0000
0000
0000
0000
0020
0000
0030
0000
0000
0000
0000
2000
,
0000
3000
0000
0000
0000
0022
0000
0033
0000
0000
0000
0000
0200
0000
0300
0000
0000
0000
0000
0020
0000
0030
0000
0000
0000
0000
0200
0000
0300
0000
0000
0000
,
0000
0002
0000
0003
0000
0000
0000
2000
0000
3000
0000
0000
0000
0000
0000
0000
0200
0000
0300
0000
0000
0000
0020
0000
0030
0000
0000
0000
2200
0000
3300
0000
,
0000
0000
0000
0000
0200
0000
0300
0000
0000
0000
0000
0020
0000
0030
0000
0000
0000
0000
0200
0000
0300
0000
0000
0000
0000
0000
0002
0000
0003
0000
0000
0000
,
0000
2000
0000
3000
0000
0000
0000
0000
0020
0000
0030
0000
0000
0000
0000
0200
0000
0300
0000
0000
0000
0000
0022
0000
0033
0000
0000
0000
0000
0000
2000
0000
,
3000
0000
0000
0000
0020
0000
0030
0000
0000
0000
0000
0000
0200
0000
0300
0000
0000
0000
0000
0020
0000
0030
0000
0000
0000
0000
2000
0000
3000
0000
0000
0000
,
0000
0020
0000
0030
0000
0000
0000
0000
0000
0200
0000
0300
0000
0000
2020
0000
3030
0000
0000
0000
0000
0200
0000
0300
0000
0000
0000
0000
0020
0000
0030
0000
,
0000
0000
0000
0200
0000
0300
0000
0000
0000
0000
2000
0000
3000
0000
0000
0000
0002
0000
0003
0000
0000
0000
0000
0000
0020
0000
0030
0000
0000
0000
0000
0200
,
0000
0300
0000
0000
0000
0002
0000
0000
0000
0003
0200
0000
0000
0300
0002
0000
0000
0003
2000
0000
0000
3000
0020
0000
0000
0030
0002
0000
0000
0003
2220
0000
,
0000
0000
0000
0000
3330
0000
0002
0000
0000
0003
0200
0000
0000
0300
2000
0000
0000
3000
0002
0000
0000
0003
0200
0000
0000
0300
0020
0000
0000
0030
2000
0000
,
0000
3000
0002
0000
0000
0003
0020
0000
0000
0030
0200
0000
0000
0300
0002
0000
0000
0003
2000
0000
0000
3000
0200
0000
0000
0300
0020
0000
0000
0030
2202
0000
,
0000
0000
0000
3303
0000
0000
0020
0000
0000
0030
0200
0000
0000
0300
2000
0000
0000
3000
0002
0000
0000
0003
0020
0000
0000
0030
0200
0000
0000
0300
2020
0000
,
0000
3030
2200
0000
0000
3300
0022
0000
0033
0000
0000
0000
0000
0000
0200
0000
0300
0000
0000
0000
2000
0000
3000
0000
0000
0000
0000
0000
0200
0000
0300
0000
,
0000
0000
0020
0030
0000
0002
0003
0000
0000
0020
0030
0000
0000
0200
0300
0000
,
0000
0000
2020
0000
3030
0000
0000
0000
0200
0000
0300
0000
0000
0000
0000
0000
0000
0000
0020
0000
0030
0000
0000
0000
0000
0002
0000
0003
0000
0000
0000
0000
,
0000
0000
0020
0000
0030
0000
0000
0000
0000
0200
0000
0300
0000
0000
0000
0000
0002
0000
0003
0000
0000
0000
0000
0000
0020
0000
0030
0000
0000
0000
0202
0000
,
0303
0000
0000
0000
0000
0000
2000
0000
3000
0000
0000
0000
0000
0000
0200
0000
0300
0000
0000
0000
0000
0000
0020
0000
0030
0000
0000
0000
0000
0002
0000
0003
,
0000
0000
0000
0000
0020
0000
0030
0000
0000
0000
0000
0002
0000
0003
0000
0000
0000
0000
0200
0000
0300
0000
0000
0000
0000
0000
2002
0000
3003
0000
0000
0000
,
0000
0020
0000
0030
0000
0000
0000
0000
0200
0000
0300
0000
0000
0000
0000
2000
0000
3000
0000
0000
0000
0000
0000
0020
0000
0030
0000
0000
0000
0000
0000
0200
,
0000
0300
0000
0000
0000
0002
0000
0003
0000
0000
0000
0000
0000
0020
0000
0030
0000
0000
0000
0000
0000
2002
0000
3003
0000
0000
0000
0000
0000
0200
0000
0300
,
0000
0000
0000
0000
0020
0000
0030
0000
0000
0000
0000
0000
2000
0000
3000
0000
0000
0000
0002
0000
0003
0000
0000
0000
0000
0000
0000
0200
0000
0300
0000
0000
,
0000
0020
0000
0030
0000
0000
0000
0000
0000
2000
0000
3000
0000
0000
0000
0000
0022
0000
0033
0000
0000
0000
0000
0200
0000
0300
0000
0000
0000
0000
0000
0000
,
0020
0000
0030
0000
0000
0000
0000
0002
0000
0003
0000
0000
0000
0000
2000
0000
3000
0000
0000
0000
0000
0200
0000
0300
0000
0000
0000
0000
0000
2000
0000
3000
,
0000
0000
0000
0000
0000
0200
0000
0300
0000
0000
0000
2020
0000
3030
0000
0000
0000
0000
0000
0002
0000
0003
0000
0000
0000
0000
0020
0000
0030
0000
0000
0000
,
0000
0200
0000
0300
0000
0000
0000
0000
0000
2000
0000
3000
0000
0000
0000
0000
0000
0200
0000
0300
0000
0000
0000
0000
0020
0000
0030
0000
0000
0000
0000
0000
,
2000
0000
3000
0000
0000
0000
0202
0000
0303
0000
0000
0000
0000
0000
0000
0020
0000
0030
0000
0000
0000
0002
0000
0003
0000
0000
0000
0000
0000
0200
0000
0300
,
0000
0000
0000
0000
0000
0020
0000
0030
0000
0000
0000
0000
2000
0000
3000
0000
0000
0000
0000
0020
0000
0030
0000
0000
0000
0000
0000
0200
0000
0300
0000
0000
,
0000
2020
3030
0000
0000
0002
0003
0000
0020
0030
0000
0000
0200
0300
0000
0000
,
0002
0000
0003
0000
0000
0000
0000
0000
2000
0000
3000
0000
0000
0000
0000
0002
0000
0003
0000
0000
0000
0000
0220
0000
0330
0000
0000
0000
0000
0002
0000
0003
,
0000
0000
0200
0300
0000
0000
0020
0030
0000
0000
2000
3000
0000
0000
0020
0030
,
0000
0000
0200
0000
0300
0000
0000
0000
0000
0000
2000
0000
3000
0000
0000
0000
0000
0000
0002
0000
0003
0000
0000
0000
0000
2020
0000
3030
0000
0000
0000
0000
,
0200
0000
0300
0000
0000
0000
0000
0000
0000
0020
0000
0030
0000
0000
0000
0000
0200
0000
0300
0000
0000
0000
0000
0000
0002
0000
0003
0000
0000
0000
0000
0200
,
0000
0300
0000
0000
0000
0000
0000
0020
0000
0030
0000
0000
0000
0000
0200
0000
0300
0000
0000
0000
0000
0002
0000
0003
0000
0000
0000
0000
2200
0000
3300
0000
,
0000
0000
0000
0000
0020
0000
0030
0000
0000
0000
0000
0000
2000
0000
3000
0000
0000
0000
0000
0020
0000
0030
0000
0000
0000
0000
0200
0000
0300
0000
0000
0000
,
0000
0000
0002
0000
0003
0000
0000
0000
0000
0200
0000
0300
0000
0000
0000
0000
0000
0022
0000
0033
0000
0000
0000
0000
2000
0000
3000
0000
0000
0000
0000
0000
,
0020
0000
0030
0000
0000
0000
0000
0000
0200
0000
0300
0000
0000
0000
0002
0000
0003
0000
0000
0000
0000
0000
0000
2000
0000
3000
0000
0000
0000
0000
0020
0000
,
0030
0000
0000
0000
0000
0200
0000
0300
0000
0000
0000
0000
2020
0000
3030
0000
0000
0000
0000
0200
0000
0300
0000
0000
0000
0000
0000
0020
0000
0030
0000
0000
,
0000
0000
2000
0000
3000
0000
0000
0000
0000
0000
0020
0000
0030
0000
0000
0000
0000
0000
0200
0000
0300
0000
0000
0000
0000
0002
0000
0003
0000
0000
0000
0000
,
0000
0020
0000
0030
0000
0000
0000
0000
0000
0202
0000
0303
0000
0000
0000
0020
0000
0030
0000
0000
0000
0000
0000
0200
0000
0300
0000
0000
0000
0000
0002
0000
,
0003
0000
0000
0000
0000
0020
0000
0030
0000
0000
0000
0200
0000
0300
0000
0000
0000
0000
0000
0000
0020
0000
0030
0000
0000
0000
2000
0000
3000
0000
0000
0000
,
0000
0022
0000
0033
0000
0000
0000
0000
0000
0200
0000
0300
0000
0000
0000
0000
0000
0020
0000
0030
0000
0000
0000
2000
0000
3000
0000
0000
0000
0000
0002
0000
,
0003
0000
0000
0000
0000
0000
0200
0000
0300
0000
0000
0000
0000
0020
0000
0030
0000
0000
0000
2000
0000
3000
0000
0000
0000
0000
0002
0000
0000
0003
0000
0200
,
0000
0000
0300
0020
0000
0000
0030
0200
0000
0000
0300
0002
0000
0000
0003
2000
0000
0000
3000
0222
0000
0000
0000
0000
0000
0333
0000
2000
0000
0000
3000
0200
,
0000
0000
0300
0020
0000
0000
0030
2000
0000
0000
3000
0002
0000
0000
0003
0200
0000
0000
0300
0020
0000
0000
0030
2000
0000
0000
3000
0002
0000
0000
0003
0200
,
0000
0000
0300
0020
0000
0000
0030
2000
0000
0000
3000
0200
0000
0000
0300
0002
0000
0000
0003
2220
0000
0000
0000
0000
3330
0000
0000
0002
0000
0000
0003
0200
,
0000
0000
0300
0020
0000
0000
0030
2000
0000
0000
3000
0002
0000
0000
0003
0020
0000
0000
0030
0200
0000
0000
0300
2000
0000
0000
3000
0011
0000
0000
0000
0000
,
0000
0000
0000
1100
0000
0000
0000
0000
0000
0000
0000
0000
0000
2020
0000
0000
0000
0000
0000
0000
3000
0000
0000
0000
0000
0000
0000
0000
0000
0000
1031
0000
,
0000
0000
0000
0000
0000
0000
0110
0000
0000
0000
0000
0000
0000
0000
1100
0000
0000
0000
0000
0000
0000
0011
0000
0000
0000
0000
0000
0000
0000
1010
0000
0000
,
0000
0000
0000
0000
0000
0101
0000
0000
0000
0000
0000
0000
0000
0022
0000
0000
0000
0000
0000
0000
0030
0000
0000
0000
0000
0000
0000
0000
0000
1103
0000
0000
,
0000
0000
0000
0000
0000
0110
0000
0000
0000
0000
0000
0000
1001
0000
0000
0000
0000
0000
0000
0000
0101
0000
0000
0000
0000
0000
0000
0000
0000
1010
0000
0000
,
0000
0000
0000
0000
0000
0011
0000
0000
0000
0000
0000
0000
0000
0000
0220
0000
0000
0000
0000
0000
0030
0000
0000
0000
0000
0000
0000
0000
0000
1310
0000
0000
,
0000
0000
0000
0000
0000
0110
0000
0000
0000
0000
0000
0000
0000
0011
0000
0000
0000
0000
0000
0000
0000
1010
0000
0000
0000
0000
0000
0000
0000
0000
1001
0000
,
0000
0000
0000
0000
0000
0000
0101
0000
0000
0000
0000
0000
0000
0000
2020
0000
0000
0000
0000
0000
0030
0000
0000
0000
0000
0000
0000
0000
0000
3101
0000
0000
,
0000
0000
0000
0000
0000
1010
0000
0000
0000
0000
0000
0000
0000
0101
0000
0000
0000
0000
0000
0000
0000
0110
0000
0000
0000
0000
0000
0000
0000
1001
0000
0000
,
0000
0000
0000
0000
0000
1100
0000
0000
0000
0000
0000
0000
0000
0022
0000
0000
0000
0000
0000
0000
0030
0000
0000
0000
0000
0000
0000
0000
1103
0000
0000
0000
,
0000
0000
0000
0000
0000
1010
0000
0000
0000
0000
0000
0000
0000
0101
0000
0000
0000
0000
0000
0000
0000
0000
1001
0000
0000
0000
0000
0000
0000
0000
1100
0000
,
0000
0000
0000
0110
0000
0000
0000
0220
0000
0000
0300
0000
0000
0000
0000
1031
,
0000
0000
0000
0011
0000
0000
0000
0101
0000
0000
0000
1001
0000
0000
0000
0110
,
0000
0000
0000
0000
0000
0000
0000
0101
0000
0000
0000
0000
0000
0000
2020
0000
0000
0000
0000
0000
0000
3000
0000
0000
0000
0000
0000
0000
0000
0000
0000
0131
,
0000
0000
0000
0000
0000
0000
0000
0110
0000
0000
0000
0000
0000
0000
0000
0011
0000
0000
0000
0000
0000
0000
0000
1010
0000
0000
0000
0000
0000
0000
0000
1100
,
0000
0000
0000
0000
0000
0000
0000
0101
0000
0000
0000
0000
0000
0000
0000
0202
0000
0000
0000
0000
0000
0000
0000
0003
0000
0000
0000
0000
0000
0000
1310
0000
,
0000
0000
0000
0000
0000
0000
0000
0110
0000
0000
0000
0000
0000
0000
0000
1001
0000
0000
0000
0000
0000
0000
0000
1010
0000
0000
0000
0000
0000
0022
0000
0000
,
0000
0000
0000
0000
0000
0000
0000
0033
0220
0000
0000
0000
0000
0000
0000
0000
0000
0000
0330
2200
0000
0000
0000
0000
0000
0000
0000
0000
0000
3300
2002
0000
,
0000
0000
0000
0000
0000
0000
0000
3003
0220
0000
0000
0000
0000
0000
0000
0000
0000
0000
0330
0002
0003
0020
0030
0200
0300
2000
3000
0202
0000
0000
0000
0000
,
0000
0000
0000
0303
2020
0000
0000
0000
0000
0000
0000
0000
0000
3030
0220
0000
0000
0000
0000
0000
0000
0000
0000
0000
0330
2002
0000
0000
0000
0000
0000
0000
,
0000
0000
3003
0202
0000
0000
0000
0000
0000
0000
0000
0000
0303
0022
0000
0000
0000
0000
0000
0000
0000
0000
0033
2020
0000
0000
0000
0000
0000
0000
0000
0000
,
0000
3030
2000
3000
0200
0300
0020
0030
0002
0003
2020
0000
0000
0000
0000
0000
0000
0000
0000
3030
2200
0000
0000
0000
0000
0000
0000
0000
0000
3300
0220
0000
,
0000
0000
0000
0000
0000
0000
0000
0330
0022
0000
0000
0000
0000
0000
0000
0000
0000
0000
0033
2020
0000
0000
0000
0000
0000
0000
0000
0000
3030
0202
0000
0000
,
0000
0000
0000
0000
0000
0000
0303
0022
0000
0000
0000
0000
0000
0000
0000
0000
0000
0033
0020
0030
0200
0300
0020
0030
0200
0300
2002
0000
0000
0000
0000
0000
,
0000
0000
0000
3003
0022
0000
0000
0000
0000
0000
0000
0000
0000
0000
0033
2200
0000
0000
0000
0000
0000
0000
0000
0000
3300
0220
0000
0000
0000
0000
0000
0000
,
0000
0000
0330
2002
0000
0000
0000
0000
0000
0000
0000
0000
3003
2020
0000
0000
0000
0000
0000
0000
0000
0000
0000
3030
0202
0000
0000
0000
0000
0000
0000
0000
,
0000
0000
0303
0002
0003
2000
3000
0002
0003
2000
3000
0220
0000
0000
0000
0000
0000
0000
0000
0000
0330
2002
0000
0000
0000
0000
0000
0000
0000
0000
3003
0220
,
0000
0000
0000
0000
0000
0000
0000
0300
0000
0000
0002
0000
0000
0000
0000
0000
0000
0000
0000
0003
0000
0000
0000
2200
0000
0000
0000
0000
0000
0000
0000
0000
,
0000
0000
0000
0000
0000
0000
0000
0000
0000
3300
0000
0000
0000
0000
0000
0002
0000
0000
0000
0000
0000
0000
0000
0003
0000
0200
0000
0000
0000
0000
0000
0000
,
0000
0000
0300
0000
0000
0000
0000
0002
0000
0000
0000
0000
0033
0000
0000
0000
2000
0000
0000
0000
0000
0000
3000
0000
0000
0022
0000
0000
0000
0000
0000
0000
,
0000
0030
0000
0000
0000
0000
0200
0000
0000
0000
0000
0000
0000
0300
0000
0000
0000
0000
2200
0000
0000
0000
0000
0000
0000
0000
0000
0000
0000
0000
0000
0000
,
0000
0000
0000
3300
0000
0000
0000
0000
0000
0000
0020
0000
0000
0000
0000
0000
0000
0000
0030
0000
0000
2000
0000
0000
0000
0000
0000
0000
0000
0000
0000
3000
,
0000
0000
0020
0000
0000
0000
0000
0000
0030
0000
0000
2000
0000
0003
0000
0000
0000
3000
0000
0000
0000
0202
0000
0000
0000
0000
0000
0000
0000
0000
0003
0000
,
0000
2000
0000
0000
0000
0000
0000
0000
0000
0000
3000
0000
0000
0000
0022
0000
0000
0000
0000
0000
0000
0000
0000
0000
0000
0000
0000
0000
0000
0033
0000
0000
,
0000
0000
0000
0000
0000
2000
0000
0000
0000
0000
0000
0000
0000
3000
0000
0000
0002
0000
0000
0000
0000
0000
0000
0000
0000
0000
0003
0000
0000
2000
0000
0000
,
0000
0000
0000
0000
0000
3300
0000
0000
0020
0000
0000
0000
0000
0030
0000
2002
0000
0000
0000
0000
0000
0000
0000
0000
0000
0003
0000
0000
0200
0000
0000
0000
,
0000
0000
0000
0000
0000
0300
0000
0000
0000
0000
0022
0000
0000
0000
0000
0000
0000
0000
0000
0000
0000
0000
0000
0000
0000
0000
0000
0033
0000
0000
0000
0000
,
0200
0000
0000
0000
0000
0000
0000
0300
0000
0000
0000
0000
0000
0001
0000
0000
0010
0000
0000
0100
0000
0000
0010
0000
0000
0001
0000
0000
0010
0000
0000
0100
,
3000
0000
0010
0000
0000
0001
0000
0000
0010
0000
0000
0100
0000
0000
2002
0010
3003
0000
0000
0000
0000
0200
0000
0300
0000
0000
0000
0020
0000
0030
0000
0000
,
0000
0000
0000
0200
0000
0300
0000
0000
0000
0000
0000
0002
0000
0003
0000
0000
0000
0000
2000
0000
3000
0000
0000
0000
0000
0000
0000
0020
0000
0030
0000
0000
,
0000
0200
0000
0300
0000
0000
0000
0000
0000
0022
0000
0033
0000
0000
0000
0000
0000
0200
0000
0300
0000
0000
0000
0000
0020
0000
0030
0000
0000
0000
0000
0000
,
0000
0002
0000
0003
0000
0000
0000
0000
0020
0000
0030
0000
0000
0000
0000
0200
0000
0300
0000
0000
0000
0000
0000
0000
0020
0000
0030
0000
0000
0000
0000
2000
,
0000
3000
0000
0000
0000
0000
0000
0220
0000
0330
0000
0000
0000
2000
0000
3000
0000
0000
0000
0000
0000
0020
0000
0030
0000
0000
0000
0000
0000
0000
2000
0000
,
3000
0000
0000
0000
0000
0000
0002
0000
0003
0000
0000
0000
0000
0200
0000
0300
0000
0000
0000
0000
0000
0020
0000
0030
0000
0000
0000
0000
0000
2000
0000
3000
,
0000
0000
0000
0202
0000
0303
0000
0000
0000
0000
0000
0020
0000
0030
0000
0000
0000
0000
0000
0002
0000
0003
0000
0000
0000
0000
0000
0200
0000
0300
0000
0000
,
0000
0000
0000
0020
0000
0030
0000
0000
0000
0000
0000
2000
0000
3000
0000
0000
0000
0000
0020
0000
0030
0000
0000
0000
0000
0000
0200
0000
0300
0000
0000
0000
,
0022
0000
0033
0000
0000
0000
0000
0000
0000
2000
0000
3000
0000
0000
0000
0020
0000
0030
0000
0000
0000
0000
0000
0000
0200
0000
0300
0000
0000
0000
0000
0020
,
0000
0030
0000
0000
0000
0000
0000
0000
0002
0000
0003
0000
0000
0000
0000
0020
0000
0030
0000
0000
0000
0000
0000
0000
2000
0000
3000
0000
0000
0000
0000
0202
,
0000
0303
0000
0000
0000
0000
0020
0000
0030
0000
0000
0000
0000
0000
0002
0000
0003
0000
0000
0000
0000
0000
2000
0000
3000
0000
0000
0000
0000
0000
0020
0000
,
0030
0000
0000
0000
0000
0002
0000
0003
0000
0000
0000
0000
2000
0000
3000
0000
0000
0000
0000
0000
0020
0000
0030
0000
0000
0000
0000
2200
0000
3300
0000
0000
,
0000
0000
0000
0020
0000
0030
0000
0000
0000
0000
0000
0002
0000
0003
0000
0000
0000
0000
0200
0000
0300
0000
0000
0000
0000
0000
0020
0000
0030
0000
0000
0000
,
0000
0000
0200
0000
0300
0000
0000
0000
0000
0002
0000
0003
0000
0000
0000
0000
0000
0020
0000
0030
0000
0000
0000
0000
0000
0202
0000
0303
0000
0000
0000
0000
,
0000
2000
0000
3000
0000
0000
0000
0000
0020
0000
0030
0000
0000
0000
0000
0000
0200
0000
0300
0000
0000
0000
0000
0002
0000
0003
0000
0000
0000
0000
0020
0000
,
0030
0000
0000
0000
0000
0000
0002
0000
0003
0000
0000
0000
0000
0200
0000
0300
0000
0000
0000
0000
0020
0000
0030
0000
0000
0000
0000
2000
0000
3000
0000
0000
,
0000
0000
0000
0200
0000
0300
0000
0000
0000
0000
0000
0020
0000
0030
0000
0000
0000
0000
0000
0002
0000
0003
0000
0000
0000
0000
0000
0200
0000
0300
0000
0000
,
0000
0000
0000
0020
0000
0030
0000
0000
0000
0000
0000
0002
0000
0003
0000
0000
0000
0000
2020
0000
3030
0000
0000
0000
0000
0200
0000
0300
0000
0000
0000
0000
,
0020
0000
0030
0000
0000
0000
0000
0000
0000
2000
0000
3000
0000
0000
0000
0000
0002
0000
0003
0000
0000
0000
0000
0000
0000
0200
0000
0300
0000
0000
0000
0000
,
0020
0000
0030
0000
0000
0000
0000
0000
0000
0002
0000
0003
0000
0000
0000
0220
0000
0330
0000
0000
0000
0000
2000
0000
3000
0000
0000
0000
0000
0000
0020
0000
,
0030
0000
0000
0200
0300
0000
0000
2000
3000
0000
0000
0200
0300
0000
0000
0020
,
0030
0000
0000
0000
0000
0000
0002
0000
0003
0000
0000
0000
0000
0220
0000
0330
0000
0000
0000
0000
0000
2000
0000
3000
0000
0000
0000
0000
0200
0000
0300
0000
,
0000
0000
0000
0000
0020
0000
0030
0000
0000
0000
0000
0002
0000
0003
0000
0000
0000
0000
0200
0000
0300
0000
0000
0000
0000
0000
0000
0020
0000
0030
0000
0000
,
0000
0000
2000
0000
3000
0000
0000
0000
0000
0202
0000
0303
0000
0000
0000
0000
0000
0020
0000
0030
0000
0000
0000
0000
2000
0000
3000
0000
0000
0000
0000
0000
,
0000
0200
0000
0300
0000
0000
0000
0000
0020
0000
0030
0000
0000
0000
0000
0000
0002
0000
0003
0000
0000
0000
0000
0000
0000
0020
0000
0030
0000
0000
0000
0000
,
0000
0200
0000
0300
0000
0000
0000
2002
0000
3003
0000
0000
0000
0000
0000
0020
0000
0030
0000
0000
0000
0000
0000
0002
0000
0003
0000
0000
0000
0000
0000
0200
,
0000
0300
0000
0000
0000
0000
0000
0020
0000
0030
0000
0000
0000
0000
2000
0000
3000
0000
0000
0000
0000
0000
0000
0020
0000
0030
0000
0000
0000
0200
0000
0300
,
0000
0000
0000
0000
0000
0022
0000
0033
0000
0000
0000
0000
2000
0000
3000
0000
0000
0000
0000
0020
0000
0030
0000
0000
0000
0000
0000
0200
0000
0300
0000
0000
,
0000
0000
0002
0000
0003
0000
0000
0000
0000
0000
0200
0000
0300
0000
0000
0000
0000
0000
0000
0020
0000
0030
0000
0000
0000
2000
0000
3000
0000
0000
0000
0000
,
0202
0000
0303
0000
0000
0000
0000
0000
0000
0020
0000
0030
0000
0000
0002
0000
0003
0000
0000
0000
0000
0000
0020
0000
0030
0000
0000
0000
0000
0000
2000
0000
,
3000
0000
0000
0000
0000
0200
0000
0300
0000
0000
0000
0000
0000
0000
0020
0000
0030
0000
0000
0000
0200
0000
0300
0000
0000
0000
0000
0000
0002
0000
0000
0000
,
0000
0000
0000
0000
0000
0003
0020
0000
0000
0000
0000
0000
0000
0030
0200
0000
0000
0000
0000
0000
0000
0300
0002
0000
0000
0000
0000
0000
0000
0003
2000
0000
,
0000
0000
0000
0000
0000
3000
0200
0000
0000
0000
0000
0000
0000
0300
2022
0000
0000
0000
0000
0000
0000
0000
0000
0000
0000
3033
0000
0000
0000
0000
0200
0000
,
0000
0000
0000
0000
0000
0300
0020
0000
0000
0000
0000
0000
0000
0030
0002
0000
0000
0000
0000
0000
0000
0003
2000
0000
0000
0000
0000
0000
0000
3000
0200
0000
,
0000
0000
0000
0000
0000
0300
0002
0000
0000
0000
0000
0000
0003
2000
0000
0000
0000
0000
0000
0000
3000
0200
0000
0000
0000
0000
0000
0000
0300
0002
0000
0000
,
0000
0000
0000
0000
0003
0020
0000
0000
0000
0000
0000
0000
0030
0200
0000
0000
0000
0000
0000
0000
0300
0002
0000
0000
0000
0000
0000
0000
0003
2000
0000
0000
,
0000
0000
0000
0000
3000
0020
0000
0000
0000
0000
0000
0000
0030
2202
0000
0000
0000
0000
0000
0000
0000
0000
0000
0000
0000
0000
3303
0000
0000
0000
0000
0020
,
0000
0000
0000
0000
0000
0030
0200
0000
0000
0000
0000
0000
0000
0300
0002
0000
0000
0000
0000
0000
0003
2000
0000
0000
0000
0000
0000
0000
3000
0200
0000
0000
,
0000
0000
0000
0000
0300
2000
0000
0000
0000
0000
0000
0000
3000
0002
0000
0000
0000
0000
0000
0000
0003
0200
0000
0000
0000
0000
0000
0000
0300
0022
0000
0000
,
0033
0000
0000
0000
0000
0000
0000
0000
0200
0000
0000
0300
0000
0000
0000
0020
0000
0000
0030
0000
0000
0000
0000
2000
0000
0000
3000
0000
0000
0000
0000
0000
,
0002
0000
0000
0003
0000
0000
0000
0200
0000
0000
0300
0000
0000
0000
0000
0000
0020
0000
0000
0030
0000
0000
0000
0000
0000
2000
0000
0000
3000
0000
0000
0000
,
0000
0202
0000
0000
0303
0000
0000
0000
0020
0000
0000
0030
0000
0000
0000
0000
0000
0000
0002
0000
0000
0003
0000
0000
0000
0000
0200
0000
0000
0300
0000
0000
,
0000
0000
0020
0000
0000
0030
0000
0000
0000
0000
0000
2000
0000
0000
3000
0000
0000
0000
0000
0200
0000
0000
0300
0000
0000
0000
0000
0020
0000
0000
0030
0000
,
0000
0000
0000
0000
0000
0000
0000
2200
0000
0000
3300
0000
0000
0000
0000
0000
0000
0020
0000
0000
0030
0000
0000
0000
0200
0000
0000
0300
0000
0000
0000
0000
,
0000
0020
0000
0000
0030
0000
0000
0000
0200
0000
0000
0300
0000
0000
0000
0000
0000
0020
0000
0000
0030
0000
0000
0000
0000
0200
0000
0000
0300
0000
0000
0022
,
0000
0000
0033
0000
0000
0000
0000
0000
0200
0000
0000
0300
0000
0000
0020
0000
0000
0030
0000
0000
0000
0000
0000
2000
0000
0000
3000
0000
0000
0000
0000
0000
,
0002
0000
0000
0003
0000
0000
0000
0000
0200
0000
0000
0300
0000
0000
0000
0000
0000
0020
0000
0000
0030
0000
0000
0000
0000
0000
0200
0000
0000
0300
0000
0000
,
0000
0022
0000
0000
0033
0000
0000
0000
0000
0000
0200
0000
0000
0300
0000
0000
0000
0000
0020
0000
0000
0030
0000
0000
0000
0000
0200
0000
0000
0300
0000
0000
,
0000
0000
0020
0000
0000
0030
0000
0000
0000
0000
0002
0000
0000
0003
0000
0000
0000
0000
0020
0000
0000
0030
0000
0000
0000
0000
2000
0000
0000
3000
0000
0000
,
0000
0000
0022
0000
0000
0033
0000
0000
0000
0000
0200
0000
0000
0300
0000
0000
0000
0020
0000
0000
0030
0000
0000
0000
0000
0000
0200
0000
0000
0300
0000
0000
,
0000
0000
0002
0000
0000
0003
0000
0000
0000
0200
0000
0000
0300
0000
0000
0000
0000
2000
0000
0000
3000
0000
0000
0000
0000
0002
0000
0000
0003
0000
0000
0000
,
0000
2200
0000
0000
3300
0000
0000
0000
0000
0020
0000
0000
0030
0000
0000
0000
0000
2000
0000
0000
3000
0000
0000
0000
0000
0002
0000
0000
0003
0000
0000
0000
,
0020
0000
0000
0030
0000
0000
0000
0000
0200
0000
0000
0300
0000
0000
0000
0000
0002
0000
0000
0003
0000
0000
0000
0000
0200
0000
0000
0300
0000
0000
0000
0000
,
2020
0000
0000
3030
0000
0000
0000
0000
0200
0000
0000
0300
0000
0000
0000
0020
0000
0000
0030
0000
0000
0000
0000
0000
0002
0000
0000
0003
0000
0000
0000
0000
,
0020
0000
0000
0030
0000
0000
0000
0000
0000
0200
0000
0000
0300
0000
0000
0000
0000
0000
0020
0000
0000
0030
0000
0000
0000
0000
2000
0000
0000
3000
0000
0000
,
0000
0202
0000
0000
0303
0000
0000
0000
0000
0020
0000
0000
0030
0000
0000
0000
0000
0002
0000
0000
0003
0000
0000
0000
0000
0200
0000
0000
0300
0000
0000
0000
,
0000
0000
2000
0000
0000
3000
0000
0000
0000
0200
0000
0000
0300
0000
0000
0000
0000
0020
0000
0000
0030
0000
0000
0000
0000
0000
0002
0000
0000
0003
0000
0000
,
0000
0000
0220
0000
0000
0330
0000
0000
0000
0002
0000
0000
0003
0000
0000
0000
0000
0020
0000
0000
0030
0000
0000
0000
0000
0000
0200
0000
0000
0300
0000
0000
,
0000
0000
2000
0000
0000
3000
0000
0000
0000
0000
0200
0000
0000
0300
0000
0000
0000
0000
0002
0000
0000
0003
0000
0000
0000
0000
0000
2000
0000
0000
3000
0000
,
0000
0000
0022
0000
0000
0033
0000
0000
0000
0000
0000
0200
0000
0000
0300
0000
0000
0000
0020
0000
0000
0030
0000
0000
0000
0000
0000
0002
0000
0000
0003
0000
,
0000
0000
0020
0000
0000
0030
0000
0000
0000
0000
0000
2000
0000
0000
3000
0000
0000
0000
0020
0000
0000
0030
0000
0000
0000
0000
0000
0000
0002
0000
0000
0003
,
0000
0000
2200
0000
0000
3300
0000
0000
0000
0000
0020
0000
0000
0030
0000
0000
0000
0000
0002
0000
0000
0003
0000
0000
0000
0000
0000
0020
0000
0000
0030
0000
,
0000
0000
0000
0002
0000
0000
0003
0000
0000
0000
0200
0000
0000
0300
0000
0000
0000
0000
0020
0000
0000
0030
0000
0000
0000
0000
2000
0000
0000
3000
0000
0000
,
0000
0000
0022
0000
0000
0033
0000
0000
0000
0000
0200
0000
0000
0300
0000
0000
0000
0000
0020
0000
0000
0030
0000
0000
0000
0000
2000
0000
0000
3000
0000
0000
,
0000
0000
0000
0020
0000
0000
0030
0000
0000
0000
0200
0000
0000
0300
0000
0000
0000
0000
0000
0000
0020
0000
0000
0030
0000
0000
0000
0000
0200
0000
0000
0300
,
0000
0000
0000
0022
0000
0000
0033
0000
0000
0000
0000
0000
2000
0000
0000
3000
0000
0000
0020
0000
0000
0030
0000
0000
0000
0000
0000
0200
0000
0000
0300
0000
,
0000
0000
0000
0020
0000
0000
0030
0000
0000
0000
0000
0000
0002
0000
0000
0003
0000
0000
0000
0000
0020
0000
0000
0030
0000
0000
0000
0200
0000
0000
0300
0000
,
0000
0000
0000
2002
0000
0000
3003
0000
0000
0000
0000
0020
0000
0000
0030
0000
0000
0000
0000
0200
0000
0000
0300
0000
0000
0000
2000
0000
0000
3000
0000
0000
,
0000
0000
0000
0020
0000
0000
0030
0000
0000
0000
0002
0000
0000
0003
0000
0000
0000
0000
0000
0020
0000
0000
0030
0000
0000
0000
2000
0000
0000
3000
0000
0000
,
0000
0000
0202
0000
0000
0303
0000
0000
0000
0000
0000
0020
0000
0000
0030
0000
0000
0000
0002
0000
0000
0003
0000
0000
0000
0000
0000
0200
0000
0000
0300
0000
,
0000
0000
0000
0020
0000
0000
0030
0000
0000
0000
0000
0000
0200
0000
0000
0300
0000
0000
0000
2000
0000
0000
3000
0000
0000
0000
0200
0000
0000
0300
0000
0000
,
0000
2000
0000
0000
0000
0000
0000
0000
0000
0000
3000
0020
0000
0000
0000
0000
0000
0000
0000
0000
0030
0200
0000
0000
0000
0000
0000
0000
0000
0000
0000
0300
,
0020
0000
0000
0000
0000
0000
0000
0000
0000
0000
0030
0002
0000
0000
0000
0000
0000
0000
0000
0003
2000
0000
0000
0000
0000
0000
0000
0000
0000
3000
0222
0000
,
0000
0000
0000
0000
0000
0000
0000
0000
0000
0000
0000
0333
0000
0000
0000
0000
0000
0000
2000
0000
0000
0000
0000
0000
0000
0000
0000
0000
3000
0200
0000
0000
,
0000
0000
0000
0000
0000
0000
0300
0002
0000
0000
0000
0000
0000
0000
0000
0000
0003
0020
0000
0000
0000
0000
0000
0000
0000
0000
0030
0002
0000
0000
0000
0000
,
0000
0000
0000
0000
0003
2000
0000
0000
0000
0000
0000
0000
0000
0000
3000
0200
0000
0000
0000
0000
0000
0000
0000
0300
2000
0000
0000
0000
0000
0000
0000
0000
,
0000
3000
0020
0000
0000
0000
0000
0000
0000
0000
0000
0000
0030
0200
0000
0000
0000
0000
0000
0000
0000
0000
0300
0002
0000
0000
0000
0000
0000
0000
0000
0000
,
0000
0003
0020
0000
0000
0000
0000
0000
0000
0000
0000
0030
2000
0000
0000
0000
0000
0000
0000
0000
0000
3000
0200
0000
0000
0000
0000
0000
0000
0000
0000
0300
,
2022
0000
0000
0000
0000
0000
0000
0000
0000
0000
0000
0000
3033
0000
0000
0000
0000
0000
0200
0000
0000
0000
0000
0000
0000
0000
0000
0300
0020
0000
0000
0000
,
0000
0000
0000
0000
0000
0030
2000
0000
0000
0000
0000
0000
0000
0000
0000
0000
3000
0200
0000
0000
0000
0000
0000
0000
0000
0300
0021
0000
0000
0000
0000
0000
,
0000
0000
0000
0030
2200
0000
0000
0000
0000
0000
0000
0000
0000
3300
0022
0000
0000
0000
0000
0000
0000
0000
0033
0000
2002
0000
0000
0000
0000
0000
0000
0000
,
3003
0000
0210
0000
0000
0000
0000
0000
0000
0000
0002
0000
0000
0000
0003
0000
0000
0000
2000
0000
0000
0000
3000
0000
0000
0302
0000
0000
0000
0003
0000
0000
,
0200
0000
0000
0000
0300
0000
0000
0020
0000
0000
0000
0030
0000
0000
0000
2000
0000
0000
0000
3000
0000
0020
0000
0000
0000
0030
0000
0000
0000
0002
0000
0000
,
0000
0003
0000
0000
0020
0000
0000
0000
0030
0000
0000
0200
0000
0000
0000
0300
0000
0000
2000
0000
0000
0000
3000
0000
0000
0200
0000
0000
0000
0300
0000
0000
,
0002
0000
0000
0000
0003
0000
0000
0000
0200
0000
0000
0000
0300
0000
2000
0000
0000
0000
3000
0000
0000
0000
0000
0220
0000
0000
0030
0000
0000
0000
0000
0002
,
0000
0000
0003
0000
0000
0000
0020
0000
0000
0030
0000
0000
0000
0000
2000
0000
0000
3000
0000
0000
0000
0020
0000
0000
0330
0000
0000
0000
0000
0000
2000
0000
,
0000
3000
0000
0000
0000
0000
0020
0000
0000
0030
0000
0000
0000
0000
0000
0002
0000
0000
0003
0000
0000
0000
2000
0000
0000
3000
0000
0000
0000
0000
0200
0000
,
0000
0300
0000
0000
0000
0002
0000
0000
0003
0000
0000
0000
0000
0000
2000
0000
0000
3000
0000
0000
0000
0020
0000
0000
0030
0000
0000
0000
0000
0000
0200
0000
,
0000
0300
0000
0000
0000
0020
0000
0000
0030
0000
0000
0000
0000
0000
0200
0000
0000
0300
0000
0000
0000
2002
0000
0000
3000
0000
0000
0000
0200
0000
0000
0300
,
0000
0000
0000
0000
0000
0020
0000
0000
0030
0000
0000
0000
0000
2000
0000
0000
3000
0000
0000
0000
0000
0200
0000
0000
0303
0000
0000
0000
0000
0020
0000
0000
,
0030
0000
0000
0000
0000
0000
2000
0000
0000
3000
0000
0000
0000
0000
0020
0000
0000
0030
0000
0000
0000
0000
0000
0002
0000
0000
0003
0000
0000
0000
0000
0000
,
2000
0000
0000
3000
0000
0000
0000
0000
0200
0000
0000
0300
0000
0000
0000
0000
0000
0002
0000
0000
0003
0000
0000
0000
0000
0000
0200
0000
0000
0300
0000
0000
,
0000
0000
0000
2000
0000
0000
3000
0000
0000
0000
0000
0000
0002
0000
0000
0003
0000
0000
0000
0000
0000
0000
0020
0000
0000
0030
0000
0000
0000
2000
0000
0000
,
3000
0000
0000
0000
0000
0202
0000
0000
0300
0000
0000
0000
0000
0000
0000
0000
2000
0000
0000
3000
0000
0000
0000
0000
0000
0000
0020
0000
0000
0030
0000
0000
,
0000
0000
0000
0000
0200
0000
0000
0300
0000
0000
0000
0000
0000
0020
0000
0000
0033
0000
0000
0000
0000
0000
0000
0000
0000
2000
0000
0000
3000
0000
0000
0000
,
0000
0000
0020
0000
0000
0030
0000
0000
0000
0000
0000
0002
0000
0000
0003
0000
0000
0000
0000
0000
0000
0000
0020
0000
0000
0030
0000
0000
0000
0000
0000
0200
,
0000
0000
0300
0000
0000
0000
0000
0000
0000
0000
0002
0000
0000
0003
0000
0000
0000
0000
0000
0000
2000
0000
0000
3000
0000
0000
0000
0000
0000
0000
0000
0020
,
0000
0000
0030
0000
0000
0000
0000
0002
0000
0000
0003
0000
0000
0000
0000
0000
0000
0000
0000
0020
0000
0000
0030
0000
0000
0000
0000
2000
0000
0000
3000
0000
,
0000
0000
0000
0000
0000
0022
0000
0000
0030
0000
0000
0000
0000
0000
0000
0000
0000
2000
0000
0000
3000
0000
0000
0000
0000
0000
0000
0000
0020
0000
0000
0030
,
0000
0000
0000
0000
0000
0000
0000
0000
0200
0000
0000
0300
0000
0000
0000
0000
0000
0000
2000
0000
0000
3003
0000
0000
0000
0000
0000
0200
0000
0000
0300
0000
,
0000
0000
0000
0000
0000
0002
0000
0000
0003
0000
0000
0000
0000
0000
0000
0200
0000
0000
0300
0000
0000
0000
0000
0000
0000
0000
0000
0000
0002
0000
0000
0003
,
0000
0000
0000
0000
0000
0000
0000
0200
0000
0000
0300
0000
0000
0000
0000
0000
0000
0000
0000
0000
2000
0000
0000
3000
0000
0000
0000
0000
0000
0000
0000
0002
,
0000
0000
0003
0000
0000
0000
0000
0000
0000
0000
0020
0000
0000
0030
0000
0000
0000
0000
0000
0000
0000
0200
0000
0000
0300
0000
0000
0000
0000
0000
0000
0000
,
0002
0000
0000
0003
0000
0000
0000
2000
0000
0000
3000
0000
0000
0000
0000
0000
0000
0000
0000
0000
0202
0000
0000
0300
0000
0000
0000
0000
0000
0000
0000
0000
,
0000
0000
2000
0000
0000
3000
0000
0000
0000
0000
0000
0000
0000
0000
0000
0020
0000
0000
0030
0000
0000
0000
0000
0000
0000
0000
0000
0000
0200
0000
0000
0300
,
0000
0000
0000
0000
0000
0000
0000
0000
2000
0000
0000
3003
0000
0000
0000
0000
0000
0000
0000
0000
0000
0000
0200
0000
0000
0300
0000
0000
0000
0000
0000
0000
,
0002
0000
0000
0003
0000
0000
0000
0000
0000
0000
0000
0000
0200
0000
0000
0300
0000
0000
0000
0000
0000
0000
0000
0000
0020
0000
0000
0030
0000
0000
0000
0000
,
0000
0000
0000
0000
2000
0000
0000
3000
0000
0000
0000
0000
0000
0000
0000
0000
0000
0000
0002
0000
0000
0003
0000
0000
0000
0000
0000
0000
0000
0000
0200
0000
,
0000
0300
0000
0000
0000
0000
0000
0000
0000
0000
0000
0020
0000
0000
0030
0000
0000
0000
0000
0000
0000
0000
2000
0000
0000
3000
0000
0000
0000
0000
0000
0000
,
0000
0000
0000
0002
0000
0000
0003
0000
0000
0000
0000
0000
0000
0000
0200
0000
0000
0300
0000
0000
0000
0000
0000
0000
0000
2020
0000
0000
0030
0000
0000
0000
,
0000
0000
0000
0000
0000
0000
0000
0000
0002
0000
0000
0003
0000
0000
0000
0000
0000
0000
0000
0000
0000
0000
0000
0000
0000
0020
0000
0000
0030
0000
0000
0000
,
0000
0000
0000
0000
0000
0000
0000
0200
0000
0000
0300
0000
0000
0000
0000
0000
0020
0000
0000
3030
0000
0000
0000
0000
0000
0000
0000
0000
0000
2000
0000
0000
,
3000
0000
0000
0000
0000
0000
0000
0002
0000
0000
0003
0000
0000
0000
0000
0000
0000
0000
0000
0000
0200
0000
0000
0300
0000
0000
0000
0000
0000
0000
0000
0000
,
0000
0002
0000
0000
0003
0000
0000
0000
0000
0000
0000
0000
0000
0200
0000
0000
0300
0000
0000
0000
0000
0000
0000
0000
0000
0000
0000
2000
0000
0000
3000
0000
,
0000
0000
0000
0000
0000
0200
0000
0000
0300
0000
0000
0000
0000
0000
0000
0000
0000
0000
0000
0000
0000
0020
0000
0000
0030
0000
0000
0000
0000
0000
0000
0000
,
0000
0002
0000
0000
0003
0000
0000
0000
0000
0000
0000
0000
0000
0000
0000
0020
0000
0000
0030
0000
0000
0000
0000
0000
0000
0000
0000
0200
0000
0000
0300
0000
,
0000
0000
0000
0000
0000
0000
0000
2020
0000
3000
0000
0002
0000
0003
0000
0000
0200
0000
0300
0000
2000
0000
3000
0000
0200
0300
0002
0003
2000
3000
0002
0003
,
1000
0001
0100
1000
0100
0002
0033
0000
0000
0000
0000
0000
0000
0000
0000
0000
0000
0000
0000
0000
0000
0000
0000
0000
0000
0000
0000
0000
0000
0000
0000
0000
;
